Motherless.Brooklyn.2019.HDRip.XviD.B4ND1T69

seeders: 17
leechers: 3
updated:
Added by B4ND1T69 in Other
Torrent reliable.


ᕦ( ▨̅ ͜▨̅ )ᕥ SPECIAL DEAL - OFFER ᕦ( ▨̅ ͜▨̅ )ᕥ
strongly advises you to use Nord while downloading torrents.
Nord is the safest on the market, and the fastest as well.
No IP Log is saved using Nord, avoid other providers and choose the safest one.
Click here and buy Nord it's on rebates today!
We were able to verify your IP: 3.229.142.175, country: United States.
If we can do that, others can too, protect your privacy with Nord.
is trying the best for you!
ᕦ( ▨̅ ͜▨̅ )ᕥ SPECIAL DEAL - OFFER ᕦ( ▨̅ ͜▨̅ )ᕥ


Motherless.Brooklyn.2019.HDRip.XviD.B4ND1T69 Size: 1.3 GB (1395864371 Bytes)

Description

Motherless.Brooklyn.2019.HDRip.XviD.B4ND1T69  

 

 Director: Edward Norton
Writers: Jonathan Lethem (based on the novel by), Edward Norton (screenplay)
Stars: Edward Norton, Gugu Mbatha-Raw, Alec Baldwin

Plot/Story:
In 1950s New York, a lonely private detective afflicted with Tourette's Syndrome ventures to solve the murder of his mentor and only friend.

General
Complete name : Motherless.Brooklyn.2019.HDRip.XviD.B4ND1T69.avi
Format : AVI
Format/Info : Audio Video Interleave
File size : 1.26 GiB
Duration : 2 h 25 min
Overall bit rate : 1 246 kb/s
Subtitles : Yes...Included(HI)

Video
ID : 0
Format : MPEG-4 Visual
Format profile : Advanced [email protected] 
Format settings, BVOP : 2
Format settings, QPel : No
Format settings, GMC : No warppoints
Format settings, Matrix : Default (H.263)
Codec ID : XVID
Codec ID/Hint : XviD
Duration : 2 h 25 min
Bit rate : 1 105 kb/s
Width : 720 pixels
Height : 384 pixels
Display aspect ratio : 1.85:1
Frame rate : 23.976 (24000/1001) FPS
Color space : YUV
Chroma subsampling : 4:2:0
Bit depth : 8 bits
Scan type : Progressive
Compression mode : Lossy
Bits/(Pixel*Frame) : 0.167
Stream size : 1.12 GiB (89%)
Writing library : XviD 64

Audio
ID : 1
Format : MPEG Audio
Format version : Version 1
Format profile : Layer 3
Codec ID : 55
Codec ID/Hint : MP3
Duration : 2 h 25 min
Bit rate mode : Constant
Bit rate : 128 kb/s
Channel(s) : 2 channels
Sampling rate : 48.0 kHz
Compression mode : Lossy
Stream size : 133 MiB (10%)
Alignment : Aligned on interleaves
Interleave, duration : 24 ms (0.58 video frame)

Screenshots:  
https://i.imgur.com/mU11tcC.png
https://i.imgur.com/1i5WUbK.png
https://i.imgur.com/0ONwi51.png
https://i.imgur.com/UlAiadU.png
https://i.imgur.com/b5EEVeG.png
https://i.imgur.com/rWhTQzU.png
https://i.imgur.com/PssJATx.png
https://i.imgur.com/Zsmcc5z.png
 
 
 
 
 
 
 
 
 
Please Seed For As Long As Possible
Or At Least 1:1 Ratio...Thanks
Enjoy Peeps 

Sharing Widget


Download torrent
Size: 1.3 GB
seeders:17
leechers:3
Motherless.Brooklyn.2019.HDRip.XviD.B4ND1T69 - (1395864371 Bytes)



To share this torrent use the code below and insert it into comments, status messages, forum posts or your signature.

Torrent: Motherless.Brooklyn.2019.HDRip.XviD.B4ND1T69

Trackers

tracker name
udp://tracker.coppersurfer.tk:6969/announce
udp://tracker.pirateparty.gr:6969/announce
udp://tracker.opentrackr.org:1337/announce
udp://tracker.tiny-vps.com:6969/announce
udp://open.demonii.si:1337/announce
udp://tracker.torrent.eu.org:451/announce
udp://tracker.leechers-paradise.org:6969/announce
udp://tracker.zer0day.to:1337/announce
udp://tracker.leechers-paradise.org:6969/announce
udp://coppersurfer.tk:6969/announce
µTorrent compatible trackers list

Locations

name
KickassTorrents
Torrent hash: E38E774A1E77B9A7210BEC9BC0568530EBCA09F0

ᕦ( ▨̅ ͜▨̅ )ᕥ SPECIAL DEAL - OFFER ᕦ( ▨̅ ͜▨̅ )ᕥ
strongly advises you to use Nord while downloading torrents.
Nord is the safest on the market, and the fastest as well.
No IP Log is saved using Nord, avoid other providers and choose the safest one.
Click here and buy Nord it's on rebates today!
We were able to verify your IP: 3.229.142.175, country: United States.
If we can do that, others can too, protect your privacy with Nord.
is trying the best for you!
ᕦ( ▨̅ ͜▨̅ )ᕥ SPECIAL DEAL - OFFER ᕦ( ▨̅ ͜▨̅ )ᕥ


All Comments

*comments box temporarily disabled*
Report a bug